WK綜合論壇, WK综合论坛

查看:75 回復:2 發表於 6 天前
本主題由 212love 於 4 天前 解除高亮
累計簽到:2128 天
連續簽到:1 天
發表於 7 天前 | 顯示全部樓層 |閱讀模式
VIP精品區,資源無限好賺金任務區,輕松賺金幣
加入VIP,享受高級特權宣傳賺金又升級,超級棒

自由鳥 Free.Byrd., 2021.[MKV / 5.56G] 1080p [複製鏈接]

影視分享
分類: 電影
題材: 喜劇 
地區: 美國 
語言: 英语 
格式: MKV 
年份: 2021
資源: BT资源
1.png 6 p% g6 j; T3 w" Z
( a* t: Z  d4 o0 |+ R" |* {
◎译  名 自由鸟
: P0 T; g1 n* u◎片  名 Free Byrd. z" q7 u  T/ ~1 p; @; }! c
◎年  代 2021* J5 {) c8 ~2 g9 m
◎产  地 美国
; T5 o* {+ a- P7 d! c, l# ?◎类  别 喜剧4 D' v3 L; ^0 B$ t0 h+ V
◎语  言 英语* g( E) Z2 u* K
◎上映日期 2021-04-01(美国)& c3 n' ]9 l, m6 w$ S
◎豆瓣评分 /10 from 0 users6 T, p3 L4 w' W  r1 A+ d" @
◎豆瓣链接 https://movie.douban.com/subject/35420802/7 k9 a+ D; Q$ T+ ?& @
◎片  长 89分钟0 p. C  r2 a5 a0 T) @
◎主  演 雷蒙德·J·巴里 Raymond J. Barry
7 l4 N9 r" V% j$ G6 q( g      桑德瑞拉·艾弗里 Shondrella Avery6 l0 _! H8 L! }  a, A6 I/ u" J
      珍妮·扬 Jeanne Young
+ m; p/ P1 M% Z) e6 D9 }
0 |8 k% ^3 t. }# F% v◎简  介
/ y. _8 d  t. u8 u/ F" X. K: H5 @" i. H7 m  A1 K" a
  A middle-aged underachieving van driver, Jay (Randy Nazarian), is assigned to drive an irascible senior, Harry (Raymond J. Barry), to a new home. Along the way they have a series of misadventures, including being picked up by a troupe of burlesque dancers led by Red (Shondrella Avery) and performing an impromptu comedy act. An enlightening journey that gives both men new perspective on life.* q7 f# y4 @1 q
Video' y  K; i9 J/ G. D1 k* {
ID : 1, o. W% I  t3 J+ K0 E
Format : AVC0 `: z0 S' \  {, G0 y$ b
Format/Info : Advanced Video Codec
& l9 f1 ^& S4 J/ C) bFormat profile : [email protected]1 K  S3 r% j3 r+ w
Format settings : CABAC / 4 Ref Frames
. K- }' N9 {6 p6 K5 FFormat settings, CABAC : Yes6 w5 [, Y& q7 k8 \' s
Format settings, Reference frames : 4 frames& N& x7 |# |: _; p# g2 |& E# }6 k
Codec ID : V_MPEG4/ISO/AVC
1 f1 ^! }7 c# c. C8 |Duration : 1 h 29 min  |: M2 z5 d) |. i6 k
Bit rate mode : Constant
- y( g6 g' ^% A5 zBit rate : 8 524 kb/s/ c6 N5 p1 \( q& A4 O; e. D2 D; P
Nominal bit rate : 10 000 kb/s
1 g; G7 v7 |* i# N7 Y7 @1 H% G2 LWidth : 1 920 pixels
( w3 o; j2 O% W7 @/ F$ [0 ?1 x6 ^  [1 WHeight : 1 040 pixels: S, n1 c9 c- k
Display aspect ratio : 1.85:1
' T! [  f& i$ k7 ^. B& s: t4 o% aFrame rate mode : Constant
9 @+ @0 j; _8 [2 Q  d2 DFrame rate : 23.976 (24000/1001/189150) FPS
- j4 |7 z% J- p- `: T" C$ uColor space : YUV
6 V7 s$ X0 x. n/ r8 u+ w) I% IChroma subsampling : 4:2:04 g7 }8 {4 k; `# h
Bit depth : 8 bits0 C* C& P3 z4 }2 j. k" M
Scan type : Progressive
' l! u/ j# B* R. q4 p9 I( B& {2 ]1 FBits/(Pixel*Frame) : 0.178+ _+ v, H2 r9 c* ~# E7 _& y
Stream size : 5.32 GiB (96%)
  ]2 J. G& b4 b1 \- k* PLanguage : English! O% Q; L0 M1 Z" r, n/ a$ d, z
Default : Yes" E6 n+ j3 L* f, }) U. D
Forced : No; H7 o9 p% v* s& p% h' N/ f5 Z
Color range : Limited1 L# R$ G% Q* }
Color primaries : BT.709
' a5 h" z0 f8 K* A( A8 Q3 u6 BTransfer characteristics : BT.709$ k! I) i; ]* j# Y4 S: `
Matrix coefficients : BT.709
* N9 t: l' S9 n& x  X, J7 B, D2 R- {2 e! ]
Audio$ k, t! {+ B1 Q  T0 e! T
ID : 2* r! r) U5 W  A/ X0 R; {
Format : AC-3: R& s( q! w3 n) q5 }3 L
Format/Info : Audio Coding 3
  u2 ^0 f. @2 v$ o1 r- u( ~. pCommercial name : Dolby Digital
# j$ r3 S! s5 l) ^Codec ID : A_AC3
. @0 Y. h- Y  m' R4 FDuration : 1 h 29 min6 y6 F4 I' G/ [" T' Y
Bit rate mode : Constant
" ~, b$ }9 A4 {6 j3 |2 o5 r, ^' ZBit rate : 384 kb/s
; W9 t5 Z5 I5 ~' ?. QChannel(s) : 6 channels
! J0 g4 I$ C, w! A( G# `# zChannel layout : L R C LFE Ls Rs
5 f2 ?9 i6 b4 y* P" o& j$ f. `+ jSampling rate : 48.0 kHz
" t: }0 r8 I% ^6 r  a' KFrame rate : 31.250 FPS (1536 SPF)
2 R% N1 I: Y$ H8 |$ xCompression mode : Lossy
. ~3 V5 y2 R: ~$ v7 ?3 HStream size : 245 MiB (4%)
0 e* r  q5 x# z# V& y3 P% ]Language : English7 t, ^$ F$ k1 o9 Q' @
Service kind : Complete Main
7 t4 w5 A& I# A* S1 C! hDefault : Yes& |- {$ E. `6 A& g
Forced : No
1 v: z/ ]) v% Q9 _, n! G
# |6 R" V. J$ o7 s4 {5 V, xText #1( N1 \; E5 _; K* V4 J3 O
ID : 3" Y, g: [( S+ ]( h4 u3 o. l! d& t
Format : UTF-8/ P% T7 J8 Y7 c# d: {; I
Codec ID : S_TEXT/UTF8+ @! n. d/ `  H1 @+ E1 b
Codec ID/Info : UTF-8 Plain Text% Q! K* |. f- c; C8 p. X2 U: M$ m% g
Duration : 1 h 25 min
5 g# {$ _: ~8 M; xBit rate : 74 b/s
8 g/ T5 U. @4 Y+ u$ G7 zCount of elements : 1636, F, X5 ~5 k. }. M3 a
Stream size : 46.3 KiB (0%)
8 m  @' d" _9 }Title : English
* }! o4 X0 |5 L! ~% s$ i0 \6 ~8 OLanguage : English5 i' @, I4 A& ]# N8 G
Default : Yes
0 r1 J: `" B* P! x$ y2 G7 uForced : No, d( t& K! @6 _8 |* _6 |# W
7 D% M0 j0 X9 u' A# r" G# C4 [
Text #2; W% C% @0 e0 E1 `
ID : 4
" m# K: e8 ?1 [2 Y8 W9 D% L0 ~Format : UTF-8
1 O( q( T- v; Q" J( pCodec ID : S_TEXT/UTF8% ^5 W. ]: x" H
Codec ID/Info : UTF-8 Plain Text2 [: z2 X! b, L) S9 |( Z5 t
Duration : 1 h 25 min
( r% G. {  @6 [$ ^Bit rate : 76 b/s
3 n  V% _" _* vCount of elements : 1730
8 T9 s* h. A5 J8 n3 LStream size : 48.0 KiB (0%)0 m2 I( z- a2 s2 R% H6 Z9 c& w- Y4 E
Title : English [SDH]. V$ M" K% y0 x$ f0 ?4 L" Q) Z
Language : English% G' q( w1 U+ N: m2 z
Default : No4 |3 `7 ]. V- [$ t9 _
Forced : No& V7 q) F2 L# ]; Q
( z& P, X9 E$ {. r" h5 [
Text #3+ g4 U( P, X3 d' o' t4 B  N
ID : 5
+ I) z' Q, E3 S. `% j5 }7 {Format : UTF-8
6 d: I1 F. `  a% |Codec ID : S_TEXT/UTF8, ~$ O& R8 o* I5 ?3 ]7 J2 P
Codec ID/Info : UTF-8 Plain Text. g# x# l4 _+ K
Duration : 1 h 25 min* R% @) y' W* j4 b
Bit rate : 79 b/s
; J  D; _4 W+ e( rCount of elements : 1782* ]& G" a1 n9 E% Q* n6 ~6 E" i4 H9 H
Stream size : 49.8 KiB (0%)4 d" K; _7 i$ f! F  d/ l: v
Title : Spanish [SDH]- |( O% Q; w" Y* ?! ]/ ^5 B
Language : Spanish8 e4 |) g* I2 F  m# F4 K" X$ a
Default : No
9 z' j+ V& z) j8 BForced : No
7 R' }8 k7 y7 R  A7 t
  K: e$ U% o1 w4 AMenu* l/ I5 h# g9 S" e; `
00:00:00.000 : Chapter 1+ J( `2 L" D, U" l* p$ D5 O% h
00:09:41.289 : Chapter 28 B" x) ]+ Y% ~+ V( Z
00:19:48.521 : Chapter 37 M/ m0 _$ Q: N7 r0 ~. ~
00:31:25.009 : Chapter 4
, t0 c, Q. o+ u. |00:39:14.144 : Chapter 5
2 y$ G, S" W4 t/ q9 u00:49:24.587 : Chapter 6; m. G) x/ b) R9 k" x; y) X5 T/ t
00:57:55.179 : Chapter 7% j0 \8 }9 Y. c& z% i3 U& M
01:09:47.724 : Chapter 84 r; i: B* r- y3 g
01:19:56.666 : Chapter 9, [/ S. \/ K) R( ?! W" e$ ^
01:26:15.753 : Chapter 10

) M, C% w! K" N+ M" [6 ~
) z3 ^: f6 e: D& Y6 q% r0 ?, }! G' x' T# N2 p

自由鳥. MKV.torrent

28.41 KB, 下載次數: 4

本帖點贊的會員︰

累計簽到:70 天
連續簽到:3 天
發表於 7 天前 | 顯示全部樓層
VIP精品區,資源無限好賺金任務區,輕松賺金幣
加入VIP,享受高級特權宣傳賺金又升級,超級棒
很讚的文章,謝謝咯!相信WK因為有你而更加精彩!
累計簽到:1094 天
連續簽到:39 天
發表於 6 天前 | 顯示全部樓層
辛苦了版主,謝謝您無私分享

回復樓主 親!! 下午好,中午養足了精神嗎?讓我們一起渡過下午茶時間,WK有您更精彩!

 分享同時學會感恩,一句感謝的話語,就是最大的支持!  歡迎交流討論
您需要登錄後才可以回帖 登錄 | 立即注册

本版積分規則

c重要聲明:本論壇是以即時上載言論的方式運作,WK論壇對所有言論的真實性、立場及版權等,不負任何法律責任。而一切言論只代表發佈者個人意見,並非本網站之立場,讀者及用戶務必自行判斷內容之真實性。 由於本論壇受到「即時上載言論」運作方式所規限,故不能完全監察所有言論,若讀者及用戶發現有內容出現「真實性、立場及版權」等問題,請聯絡我們:[email protected]論壇有權刪除任何言論(刪除前或不會作事先警告及通知)| SiteMap[網站地圖]

發表新帖 返回頂部